<?xml version="1.0" standalone="no"?>
<!DOCTYPE svg PUBLIC "-//W3C//DTD SVG 1.1//EN" "http://www.w3.org/Graphics/SVG/1.1/DTD/svg11.dtd">
<svg xmlns="http://www.w3.org/2000/svg">
<metadata>IconScout</metadata>
<defs>
<font id="unicons-0" horiz-adv-x="1000" >
<font-face font-family="unicons-0" font-weight="400" font-stretch="normal" units-per-em="1000" ascent="850" descent="-150" />
<missing-glyph horiz-adv-x="1000" />
<glyph glyph-name="comment-block" unicode="&#xe800;" d="M792 267a42 42 0 0 1-51-30 292 292 0 0 0-283-220h-233l27 26a42 42 0 0 1 0 59 292 292 0 0 0 133 489 42 42 0 0 1-20 81 375 375 0 0 1-198-598l-72-69a42 42 0 0 1-8-46 42 42 0 0 1 38-26h333a375 375 0 0 1 364 282 42 42 0 0 1-30 52z m64 439a208 208 0 1 1 61-148 208 208 0 0 1-61 148z m-273-148a125 125 0 0 0 125 125 125 125 0 0 0 54-12l-167-167a125 125 0 0 0-12 54z m214-88a128 128 0 0 0-142-24l167 167a125 125 0 0 0 11-55 125 125 0 0 0-36-88z" horiz-adv-x="1000" />

<glyph glyph-name="comment-alt-edit" unicode="&#xe801;" d="M771 621h-167a42 42 0 0 1 0-83h167a42 42 0 0 0 41-42v-405l-65 60a42 42 0 0 1-28 11h-365a42 42 0 0 0-42 42v42a42 42 0 0 1-83 0v-42a125 125 0 0 1 125-125h349l125-114a42 42 0 0 1 28-11 46 46 0 0 1 17 3 42 42 0 0 1 25 39v500a125 125 0 0 1-127 125z m-393-292h101a42 42 0 0 1 42 42v101a42 42 0 0 1-12 29l-233 233a42 42 0 0 1-58 0l-102-101a42 42 0 0 1 0-59l233-233a42 42 0 0 1 29-12z m-131 316l191-190v-42h-42l-191 190z" horiz-adv-x="1000" />

<glyph glyph-name="comments" unicode="&#xe802;" d="M859 50a292 292 0 0 1-114 441 333 333 0 1 1-592-262l-58-58a42 42 0 0 1-8-45 42 42 0 0 1 38-26h237a292 292 0 0 1 263-167h250a42 42 0 0 1 38 26 42 42 0 0 1-8 46z m-526 175a276 276 0 0 1 4-42h-112l15 15a42 42 0 0 1 0 59 247 247 0 0 0-73 176 250 250 0 0 0 250 250 248 248 0 0 0 235-166c-9 0-18 0-27 0a292 292 0 0 1-292-292z m439-208l3-2h-150a208 208 0 1 0 148 60 42 42 0 0 1-13-29 42 42 0 0 1 12-29z" horiz-adv-x="1000" />

<glyph glyph-name="comment-alt-search" unicode="&#xe803;" d="M792 600h-209a42 42 0 0 1 0-83h209a42 42 0 0 0 41-42v-405l-65 60a42 42 0 0 1-28 12h-365a42 42 0 0 0-42 41v84a42 42 0 0 1-83 0v-84a125 125 0 0 1 125-125h348l125-113a42 42 0 0 1 27-12 46 46 0 0 1 17 4 42 42 0 0 1 25 38v500a125 125 0 0 1-125 125z m-435-167l72-72a42 42 0 0 1 59 0 42 42 0 0 1 0 59l-71 73a182 182 0 0 1 27 94 180 180 0 1 1-361 0 180 180 0 0 1 180-180 181 181 0 0 1 94 26z m-190 154a95 95 0 0 0 28 68 97 97 0 0 0 138 0 96 96 0 0 0 0-138 97 97 0 0 0-166 70z" horiz-adv-x="1000" />

<glyph glyph-name="comment-shield" unicode="&#xe804;" d="M904 731a42 42 0 0 1-35 8 125 125 0 0 0-97 20 42 42 0 0 1-48 0 125 125 0 0 0-97-20 42 42 0 0 1-35-8 42 42 0 0 1-15-32v-141a190 190 0 0 1 79-154l68-48a42 42 0 0 1 49 0l67 48a190 190 0 0 1 80 154v141a42 42 0 0 1-16 32z m-68-173a107 107 0 0 0-44-83l-42-31-45 31a107 107 0 0 0-45 83v95a215 215 0 0 1 90 23 213 213 0 0 1 88-23z m-47-291a42 42 0 0 1-51-30 292 292 0 0 0-283-220h-232l27 26a42 42 0 0 1 0 57 292 292 0 0 0 205 500 42 42 0 0 1 0 83 375 375 0 0 1-291-609l-71-69a42 42 0 0 1 29-72h333a375 375 0 0 1 364 282 42 42 0 0 1-30 52z" horiz-adv-x="1000" />

<glyph glyph-name="comment-alt-dots" unicode="&#xe805;" d="M500 475a42 42 0 1 1 42-42 42 42 0 0 1-42 42z m292 292h-584a125 125 0 0 1-125-125v-417a125 125 0 0 1 125-125h483l154-155a42 42 0 0 1 30-12 35 35 0 0 1 16 4 42 42 0 0 1 26 38v667a125 125 0 0 1-125 125z m41-692l-95 96a42 42 0 0 1-30 12h-500a42 42 0 0 0-41 42v417a42 42 0 0 0 41 41h584a42 42 0 0 0 41-41z m-500 400a42 42 0 1 1 42-42 42 42 0 0 1-42 42z m334 0a42 42 0 1 1 41-42 42 42 0 0 1-41 42z" horiz-adv-x="1000" />

<glyph glyph-name="comment-download" unicode="&#xe806;" d="M792 267a42 42 0 0 1-51-30 292 292 0 0 0-283-220h-233l27 26a42 42 0 0 1 0 59 292 292 0 0 0 206 498 354 354 0 0 0 37 0 42 42 0 1 1 10 83 347 347 0 0 1-47 0 375 375 0 0 1-291-609l-72-69a42 42 0 0 1-8-46 42 42 0 0 1 38-26h333a375 375 0 0 1 364 282 42 42 0 0 1-30 52z m113 281a42 42 0 0 1-60 0l-53-56v233a42 42 0 0 1-84 0v-233l-53 54a42 42 0 1 1-60-59l125-125a42 42 0 0 1 14-9 39 39 0 0 1 32 0 42 42 0 0 1 14 9l125 125a42 42 0 0 1 0 59z" horiz-adv-x="1000" />

<glyph glyph-name="comment-check" unicode="&#xe807;" d="M554 553a42 42 0 0 1 0-59l80-80a42 42 0 0 1 59 0l170 170a42 42 0 1 1-59 58l-141-140-50 51a42 42 0 0 1-59 0z m276-146a42 42 0 0 1-38-45 109 109 0 0 0 0-12 292 292 0 0 0-292-292h-233l27 27a42 42 0 0 1 0 58 292 292 0 0 0 145 492 297 297 0 0 0 116 0 42 42 0 1 1 17 84 381 381 0 0 1-150 0 377 377 0 0 1-297-369 375 375 0 0 1 83-234l-71-70a42 42 0 0 1-9-45 42 42 0 0 1 39-26h333a375 375 0 0 1 375 375c0 6 0 12 0 18a42 42 0 0 1-45 39z" horiz-adv-x="1000" />

<glyph glyph-name="comment-alt-chart-lines" unicode="&#xe808;" d="M500 517a42 42 0 0 1-42-42v-167a42 42 0 0 1 84 0v167a42 42 0 0 1-42 42z m-167-125a42 42 0 0 1-41-42v-42a42 42 0 0 1 83 0v42a42 42 0 0 1-42 42z m459 375h-584a125 125 0 0 1-125-125v-417a125 125 0 0 1 125-125h483l154-155a42 42 0 0 1 30-12 35 35 0 0 1 16 4 42 42 0 0 1 26 38v667a125 125 0 0 1-125 125z m41-692l-95 96a42 42 0 0 1-30 12h-500a42 42 0 0 0-41 42v417a42 42 0 0 0 41 41h584a42 42 0 0 0 41-41z m-166 525a42 42 0 0 1-42-42v-250a42 42 0 0 1 83 0v250a42 42 0 0 1-41 42z" horiz-adv-x="1000" />

<glyph glyph-name="comment-alt-download" unicode="&#xe809;" d="M255 353a39 39 0 0 1 32 0 42 42 0 0 1 13 9l125 125a42 42 0 1 1-59 59l-53-54v233a42 42 0 0 1-84 0v-233l-54 54a42 42 0 1 1-59-59l125-125a42 42 0 0 1 14-9z m516 247h-208a42 42 0 0 1 0-83h208a42 42 0 0 0 41-42v-405l-65 60a42 42 0 0 1-28 12h-365a42 42 0 0 0-42 41v42a42 42 0 0 1-83 0v-42a125 125 0 0 1 125-125h349l125-113a42 42 0 0 1 28-12 46 46 0 0 1 17 4 42 42 0 0 1 25 38v500a125 125 0 0 1-127 125z" horiz-adv-x="1000" />

<glyph glyph-name="comment-alt-lock" unicode="&#xe80a;" d="M500 433v84a125 125 0 0 1-83 117v49a125 125 0 0 1-250 0v-49a125 125 0 0 1-84-117v-84a125 125 0 0 1 125-125h167a125 125 0 0 1 125 125z m-250 250a42 42 0 0 0 83 0v-41h-83z m-83-250v84a42 42 0 0 0 41 41h167a42 42 0 0 0 42-41v-84a42 42 0 0 0-42-41h-167a42 42 0 0 0-41 41z m625 125h-167a42 42 0 0 1 0-83h167a42 42 0 0 0 41-42v-405l-65 61a42 42 0 0 1-28 11h-365a42 42 0 0 0-42 42v41a42 42 0 0 1-83 0v-41a125 125 0 0 1 125-125h348l125-114a42 42 0 0 1 27-11 46 46 0 0 1 17 3 42 42 0 0 1 25 38v500a125 125 0 0 1-125 125z" horiz-adv-x="1000" />

<glyph glyph-name="comment-medical" unicode="&#xe80b;" d="M500 767a417 417 0 0 1-417-417 412 412 0 0 1 95-264l-84-83a42 42 0 0 1-9-46 42 42 0 0 1 40-24h375a417 417 0 0 1 0 834z m0-750h-275l39 38a42 42 0 0 1 0 59 333 333 0 1 0 236-97z m83 375h-41v41a42 42 0 0 1-84 0v-41h-41a42 42 0 0 1 0-84h41v-41a42 42 0 0 1 84 0v41h41a42 42 0 0 1 0 84z" horiz-adv-x="1000" />

<glyph glyph-name="comment-alt-heart" unicode="&#xe80c;" d="M500 585a128 128 0 0 1-147-22 125 125 0 0 1 0-176l117-120a42 42 0 0 1 60 0l117 118a125 125 0 0 1 0 176 128 128 0 0 1-147 24z m88-140l-88-88-88 88a42 42 0 0 0 0 60 42 42 0 0 0 58 0 42 42 0 0 1 60 0 42 42 0 0 0 58 0 42 42 0 0 0 0-60z m204 322h-584a125 125 0 0 1-125-125v-417a125 125 0 0 1 125-125h483l154-155a42 42 0 0 1 30-12 35 35 0 0 1 16 4 42 42 0 0 1 26 38v667a125 125 0 0 1-125 125z m41-692l-95 96a42 42 0 0 1-30 12h-500a42 42 0 0 0-41 42v417a42 42 0 0 0 41 41h584a42 42 0 0 0 41-41z" horiz-adv-x="1000" />

<glyph glyph-name="comment" unicode="&#xe80d;" d="M500 767a417 417 0 0 1-417-417 412 412 0 0 1 95-264l-84-83a42 42 0 0 1-9-46 42 42 0 0 1 40-24h375a417 417 0 0 1 0 834z m0-750h-275l39 38a42 42 0 0 1 0 59 333 333 0 1 0 236-97z" horiz-adv-x="1000" />

<glyph glyph-name="comment-alt-share" unicode="&#xe80e;" d="M813 579h-209a42 42 0 0 1 0-83h209a42 42 0 0 0 41-42v-405l-65 61a42 42 0 0 1-29 11h-364a42 42 0 0 0-42 42v83a42 42 0 0 1-83 0v-83a125 125 0 0 1 125-125h348l125-114a42 42 0 0 1 29-12 46 46 0 0 1 16 4 42 42 0 0 1 25 38v500a125 125 0 0 1-126 125z m-417-208a83 83 0 1 1-49 150l-73 34 79 36a83 83 0 0 1 42-12 83 83 0 1 1-83 84l-79-37a83 83 0 0 1-45 16 83 83 0 0 1 0-167 83 83 0 0 1 38 10l87-42a83 83 0 0 1 83-72z" horiz-adv-x="1000" />

<glyph glyph-name="comment-alt-upload" unicode="&#xe80f;" d="M229 392a42 42 0 0 1 84 0v233l53-55a42 42 0 0 1 59 0 42 42 0 0 1 0 60l-125 125a42 42 0 0 1-13 8 42 42 0 0 1-32 0 42 42 0 0 1-14-8l-125-125a42 42 0 0 1 59-60l54 55z m542 208h-208a42 42 0 0 1 0-83h208a42 42 0 0 0 41-42v-405l-65 60a42 42 0 0 1-28 12h-365a42 42 0 0 0-42 41v42a42 42 0 0 1-83 0v-42a125 125 0 0 1 125-125h349l125-113a42 42 0 0 1 28-12 46 46 0 0 1 17 4 42 42 0 0 1 25 38v500a125 125 0 0 1-127 125z" horiz-adv-x="1000" />

<glyph glyph-name="comment-dots" unicode="&#xe810;" d="M333 392a42 42 0 1 1 42-42 42 42 0 0 1-42 42z m167 0a42 42 0 1 1 42-42 42 42 0 0 1-42 42z m167 0a42 42 0 1 1 41-42 42 42 0 0 1-41 42z m-167 375a417 417 0 0 1-417-417 412 412 0 0 1 95-264l-84-83a42 42 0 0 1-9-46 42 42 0 0 1 40-24h375a417 417 0 0 1 0 834z m0-750h-275l39 38a42 42 0 0 1 13 30 42 42 0 0 1-13 29 333 333 0 1 0 236-97z" horiz-adv-x="1000" />

<glyph glyph-name="comment-alt-lines" unicode="&#xe811;" d="M542 392h-250a42 42 0 0 1 0-84h250a42 42 0 0 1 0 84z m166 166h-416a42 42 0 0 1 0-83h416a42 42 0 0 1 0 83z m84 209h-584a125 125 0 0 1-125-125v-417a125 125 0 0 1 125-125h483l154-155a42 42 0 0 1 30-12 35 35 0 0 1 16 4 42 42 0 0 1 26 38v667a125 125 0 0 1-125 125z m41-692l-95 96a42 42 0 0 1-30 12h-500a42 42 0 0 0-41 42v417a42 42 0 0 0 41 41h584a42 42 0 0 0 41-41z" horiz-adv-x="1000" />

<glyph glyph-name="comment-lock" unicode="&#xe812;" d="M788 178a42 42 0 0 1-57-15 292 292 0 0 0-252-146h-233l27 26a42 42 0 0 1 0 59 292 292 0 0 0 169 496 42 42 0 1 1-10 83 375 375 0 0 1-246-607l-70-69a42 42 0 0 1-8-46 42 42 0 0 1 38-26h333a375 375 0 0 1 325 188 42 42 0 0 1-16 57z m25 415v49a125 125 0 0 1-250 0v-49a125 125 0 0 1-84-118v-83a125 125 0 0 1 125-125h167a125 125 0 0 1 125 125v83a125 125 0 0 1-83 118z m-167 49a42 42 0 0 0 83 0v-42h-83z m166-250a42 42 0 0 0-41-42h-167a42 42 0 0 0-41 42v83a42 42 0 0 0 41 42h167a42 42 0 0 0 41-42z" horiz-adv-x="1000" />

<glyph glyph-name="comment-heart" unicode="&#xe813;" d="M500 502a128 128 0 0 1-147-22 125 125 0 0 1 0-177l117-120a42 42 0 0 1 60 0l117 118a125 125 0 0 1 0 177 128 128 0 0 1-147 24z m88-140l-88-88-88 88a42 42 0 0 0 0 59 42 42 0 0 0 58 0 42 42 0 0 1 60 0 42 42 0 0 0 58 0 42 42 0 0 0 0-59z m-88 405a417 417 0 0 1-417-417 412 412 0 0 1 95-264l-84-83a42 42 0 0 1-9-46 42 42 0 0 1 40-24h375a417 417 0 0 1 0 834z m0-750h-275l39 38a42 42 0 0 1 0 59 333 333 0 1 0 236-97z" horiz-adv-x="1000" />

<glyph glyph-name="comment-info-alt" unicode="&#xe814;" d="M500 475a42 42 0 0 1-42-42v-125a42 42 0 0 1 84 0v125a42 42 0 0 1-42 42z m292 292h-584a125 125 0 0 1-125-125v-417a125 125 0 0 1 125-125h483l154-155a42 42 0 0 1 30-12 35 35 0 0 1 16 4 42 42 0 0 1 26 38v667a125 125 0 0 1-125 125z m41-692l-95 96a42 42 0 0 1-30 12h-500a42 42 0 0 0-41 42v417a42 42 0 0 0 41 41h584a42 42 0 0 0 41-41z m-333 525a42 42 0 1 1 42-42 42 42 0 0 1-42 42z" horiz-adv-x="1000" />

<glyph glyph-name="comment-upload" unicode="&#xe815;" d="M792 267a42 42 0 0 1-51-30 292 292 0 0 0-283-220h-233l27 26a42 42 0 0 1 0 59 292 292 0 0 0 206 498 42 42 0 0 1 0 83 375 375 0 0 1-291-609l-72-69a42 42 0 0 1-8-46 42 42 0 0 1 38-26h333a375 375 0 0 1 364 282 42 42 0 0 1-30 52z m113 364l-125 125a42 42 0 0 1-14 9 42 42 0 0 1-32 0 42 42 0 0 1-14-9l-125-125a42 42 0 0 1 60-59l53 53v-233a42 42 0 0 1 84 0v233l53-55a42 42 0 0 1 60 0 42 42 0 0 1 0 60z" horiz-adv-x="1000" />

<glyph glyph-name="comment-alt-medical" unicode="&#xe816;" d="M583 475h-41v42a42 42 0 0 1-84 0v-42h-41a42 42 0 0 1 0-83h41v-42a42 42 0 0 1 84 0v42h41a42 42 0 0 1 0 83z m209 292h-584a125 125 0 0 1-125-125v-417a125 125 0 0 1 125-125h483l154-155a42 42 0 0 1 30-12 35 35 0 0 1 16 4 42 42 0 0 1 26 38v667a125 125 0 0 1-125 125z m41-692l-95 96a42 42 0 0 1-30 12h-500a42 42 0 0 0-41 42v417a42 42 0 0 0 41 41h584a42 42 0 0 0 41-41z" horiz-adv-x="1000" />

<glyph glyph-name="chat-info" unicode="&#xe817;" d="M804 695a42 42 0 0 1 59 0 48 48 0 0 1 9 14 42 42 0 0 1 3 16 42 42 0 0 1-12 30l-6 5a32 32 0 0 1-8 3 42 42 0 0 1-45-8 42 42 0 0 1-12-30 42 42 0 0 1 3-16 48 48 0 0 1 9-14z m29-53a42 42 0 0 1-41-42v-167a42 42 0 0 1 83 0v167a42 42 0 0 1-42 42z m3-334a42 42 0 0 1-46-36 292 292 0 0 0-290-255h-233l27 26a42 42 0 0 1 0 59 292 292 0 0 0 206 498 288 288 0 0 0 145-39 42 42 0 0 1 42 72 368 368 0 0 1-187 50 375 375 0 0 1-292-609l-71-69a42 42 0 0 1-9-46 42 42 0 0 1 39-26h333a375 375 0 0 1 372 329 42 42 0 0 1-36 46z" horiz-adv-x="1000" />

<glyph glyph-name="comment-alt-notes" unicode="&#xe818;" d="M292 558a42 42 0 1 1 41-41 42 42 0 0 1-41 41z m0-166a42 42 0 1 1 41-42 42 42 0 0 1-41 42z m416 0h-250a42 42 0 0 1 0-84h250a42 42 0 0 1 0 84z m0 166h-250a42 42 0 0 1 0-83h250a42 42 0 0 1 0 83z m84 209h-584a125 125 0 0 1-125-125v-417a125 125 0 0 1 125-125h483l154-155a42 42 0 0 1 30-12 35 35 0 0 1 16 4 42 42 0 0 1 26 38v667a125 125 0 0 1-125 125z m41-692l-95 96a42 42 0 0 1-30 12h-500a42 42 0 0 0-41 42v417a42 42 0 0 0 41 41h584a42 42 0 0 0 41-41z" horiz-adv-x="1000" />

<glyph glyph-name="comment-alt-plus" unicode="&#xe819;" d="M625 475h-83v83a42 42 0 0 1-84 0v-83h-83a42 42 0 0 1 0-83h83v-84a42 42 0 0 1 84 0v84h83a42 42 0 0 1 0 83z m167 292h-584a125 125 0 0 1-125-125v-417a125 125 0 0 1 125-125h483l154-155a42 42 0 0 1 30-12 35 35 0 0 1 16 4 42 42 0 0 1 26 38v667a125 125 0 0 1-125 125z m41-692l-95 96a42 42 0 0 1-30 12h-500a42 42 0 0 0-41 42v417a42 42 0 0 0 41 41h584a42 42 0 0 0 41-41z" horiz-adv-x="1000" />

<glyph glyph-name="comment-alt-image" unicode="&#xe81a;" d="M792 767h-584a125 125 0 0 1-125-125v-417a125 125 0 0 1 125-125h483l154-155a42 42 0 0 1 30-12 35 35 0 0 1 16 4 42 42 0 0 1 26 38v667a125 125 0 0 1-125 125z m-552-584h-32a42 42 0 0 0-41 42v18l137 137a42 42 0 0 0 59 0l36-37z m593-108l-95 96a42 42 0 0 1-30 12h-350l280 280a42 42 0 0 0 58 0l137-137z m0 368l-78 78a125 125 0 0 1-177 0l-120-119-36 36a128 128 0 0 1-177 0l-78-78v282a42 42 0 0 0 41 41h584a42 42 0 0 0 41-41z" horiz-adv-x="1000" />

<glyph glyph-name="comment-share" unicode="&#xe81b;" d="M794 287a42 42 0 0 1-46-36 292 292 0 0 0-290-255h-233l27 26a42 42 0 0 1 0 59 292 292 0 0 0 133 489 42 42 0 0 1-20 81 375 375 0 0 1-198-598l-72-69a42 42 0 0 1-8-46 42 42 0 0 1 38-26h333a375 375 0 0 1 372 329 42 42 0 0 1-36 46z m-2 251a83 83 0 0 1-49-17l-73 34 80 36a83 83 0 0 1 42-12 83 83 0 1 1-84 84l-79-37a83 83 0 0 1-46 16 83 83 0 0 1 0-167 83 83 0 0 1 39 10l87-42a83 83 0 1 1 83 95z" horiz-adv-x="1000" />

<glyph glyph-name="comment-edit" unicode="&#xe81c;" d="M905 653l-102 102a42 42 0 0 1-58 0l-233-233a42 42 0 0 1-12-29v-101a42 42 0 0 1 42-42h101a42 42 0 0 1 29 12l233 233a42 42 0 0 1 0 58z m-280-220h-42v42l191 191 42-42z m167-83h0a42 42 0 0 1-42-42 292 292 0 0 0-292-291h-233l27 26a42 42 0 0 1 0 59 292 292 0 0 0 206 498 42 42 0 0 1 0 83h0a375 375 0 0 1-291-609l-72-69a42 42 0 0 1-8-46 42 42 0 0 1 38-26h333a375 375 0 0 1 375 375 42 42 0 0 1-41 42z" horiz-adv-x="1000" />

<glyph glyph-name="comment-alt-block" unicode="&#xe81d;" d="M792 600h-167a42 42 0 0 1 0-83h167a42 42 0 0 0 41-42v-405l-65 60a42 42 0 0 1-28 12h-365a42 42 0 0 0-42 41v42a42 42 0 0 1-83 0v-42a125 125 0 0 1 125-125h348l125-113a42 42 0 0 1 27-12 46 46 0 0 1 17 4 42 42 0 0 1 25 38v500a125 125 0 0 1-125 125z m-353-189a208 208 0 1 1-147-61 208 208 0 0 1 147 61z m-272 147a125 125 0 0 0 125 125 125 125 0 0 0 53-12l-167-167a125 125 0 0 0-11 54z m237 54a125 125 0 0 0 13-54 125 125 0 0 0-179-112z" horiz-adv-x="1000" />

<glyph glyph-name="comment-chart-line" unicode="&#xe81e;" d="M500 433a42 42 0 0 1-42-41v-167a42 42 0 0 1 84 0v167a42 42 0 0 1-42 41z m-167-125a42 42 0 0 1-41-41v-42a42 42 0 0 1 83 0v42a42 42 0 0 1-42 41z m167 459a417 417 0 0 1-417-417 412 412 0 0 1 95-264l-84-83a42 42 0 0 1-9-46 42 42 0 0 1 40-24h375a417 417 0 0 1 0 834z m0-750h-275l39 38a42 42 0 0 1 13 30 42 42 0 0 1-13 29 333 333 0 1 0 236-97z m167 500a42 42 0 0 1-42-42v-250a42 42 0 0 1 83 0v250a42 42 0 0 1-41 42z" horiz-adv-x="1000" />

<glyph glyph-name="comment-alt-question" unicode="&#xe81f;" d="M262 421a42 42 0 0 1 46-68 50 50 0 0 1 13 9 42 42 0 0 1 9 13 35 35 0 0 1 3 17 42 42 0 0 1-12 29 42 42 0 0 1-59 0z m30 221a42 42 0 0 0 0-84 42 42 0 0 1 0-83 125 125 0 1 1-109 188 42 42 0 0 1 16-58 42 42 0 0 1 56 16 42 42 0 0 0 37 21z m500-42h-250a42 42 0 0 1 0-83h250a42 42 0 0 0 41-42v-405l-65 60a42 42 0 0 1-28 12h-365a42 42 0 0 0-42 41v42a42 42 0 0 1-83 0v-42a125 125 0 0 1 125-125h348l125-113a42 42 0 0 1 27-12 46 46 0 0 1 17 4 42 42 0 0 1 25 38v500a125 125 0 0 1-125 125z" horiz-adv-x="1000" />

<glyph glyph-name="comment-lines" unicode="&#xe820;" d="M708 475h-416a42 42 0 0 1 0-83h416a42 42 0 0 1 0 83z m-166-167h-250a42 42 0 0 1 0-83h250a42 42 0 0 1 0 83z m-42 459a417 417 0 0 1-417-417 412 412 0 0 1 95-264l-84-83a42 42 0 0 1-9-46 42 42 0 0 1 40-24h375a417 417 0 0 1 0 834z m0-750h-275l39 38a42 42 0 0 1 0 59 333 333 0 1 0 236-97z" horiz-adv-x="1000" />

<glyph glyph-name="comment-redo" unicode="&#xe821;" d="M792 267a42 42 0 0 1-51-30 292 292 0 0 0-283-220h-233l27 26a42 42 0 0 1 0 59 292 292 0 0 0 133 489 42 42 0 0 1-20 81 375 375 0 0 1-198-598l-72-69a42 42 0 0 1-8-46 42 42 0 0 1 38-26h333a375 375 0 0 1 364 282 42 42 0 0 1-30 52z m83 500a42 42 0 0 1-42-42h0a208 208 0 1 1 13-323 42 42 0 1 1-54 63 125 125 0 1 0-84 218 125 125 0 0 0 93-41h-51a42 42 0 0 1 0-84h125a42 42 0 0 1 42 42v125a42 42 0 0 1-42 42z" horiz-adv-x="1000" />

<glyph glyph-name="comment-alt-check" unicode="&#xe822;" d="M282 469l227 226a42 42 0 1 1-59 60l-198-197-77 77a42 42 0 0 1-59-60l107-106a42 42 0 0 1 59 0z m489 131h-229a42 42 0 0 1 0-83h229a42 42 0 0 0 41-42v-405l-65 60a42 42 0 0 1-28 12h-365a42 42 0 0 0-42 41v146a42 42 0 0 1-83 0v-146a125 125 0 0 1 125-125h349l125-113a42 42 0 0 1 28-12 46 46 0 0 1 17 4 42 42 0 0 1 25 38v500a125 125 0 0 1-127 125z" horiz-adv-x="1000" />

<glyph glyph-name="comment-alt-shield" unicode="&#xe823;" d="M274 350a42 42 0 0 1 24 8l67 48a190 190 0 0 1 80 152v141a42 42 0 0 1-15 32 42 42 0 0 1-35 8 125 125 0 0 0-98 20 42 42 0 0 1-47 0 125 125 0 0 0-97-20 42 42 0 0 1-50-41v-140a190 190 0 0 1 79-154l68-46a39 39 0 0 1 24-8z m-88 208v95a215 215 0 0 1 88 23 213 213 0 0 1 88-23v-95a107 107 0 0 0-45-83l-42-31-45 31a107 107 0 0 0-44 83z m586 42h-208a42 42 0 0 1 0-83h208a42 42 0 0 0 42-42v-405l-64 60a39 39 0 0 1-28 12h-366a42 42 0 0 0-42 41v42a42 42 0 0 1-83 0v-42a125 125 0 0 1 125-125h348l125-113a42 42 0 0 1 28-12 48 48 0 0 1 17 4 42 42 0 0 1 25 38v500a125 125 0 0 1-127 125z" horiz-adv-x="1000" />

<glyph glyph-name="chat" unicode="&#xe824;" d="M750 767h-500a125 125 0 0 1-125-125v-459a125 125 0 0 1 125-125h108l112-113a42 42 0 0 1 30-12 42 42 0 0 1 27 10l134 115h89a125 125 0 0 1 125 125v459a125 125 0 0 1-125 125z m42-584a42 42 0 0 0-42-41h-104a42 42 0 0 1-27-10l-117-100-97 98a42 42 0 0 1-30 12h-125a42 42 0 0 0-42 41v459a42 42 0 0 0 42 41h500a42 42 0 0 0 42-41z" horiz-adv-x="1000" />

<glyph glyph-name="comment-alt-message" unicode="&#xe825;" d="M708 558h-416a42 42 0 0 1 0-83h416a42 42 0 0 1 0 83z m0-166h-416a42 42 0 0 1 0-84h416a42 42 0 0 1 0 84z m84 375h-584a125 125 0 0 1-125-125v-417a125 125 0 0 1 125-125h483l154-155a42 42 0 0 1 30-12 35 35 0 0 1 16 4 42 42 0 0 1 26 38v667a125 125 0 0 1-125 125z m41-692l-95 96a42 42 0 0 1-30 12h-500a42 42 0 0 0-41 42v417a42 42 0 0 0 41 41h584a42 42 0 0 0 41-41z" horiz-adv-x="1000" />

<glyph glyph-name="comment-search" unicode="&#xe826;" d="M884 421l-72 72a182 182 0 0 1 27 94 180 180 0 1 1-180-180 181 181 0 0 1 94 26l72-72a42 42 0 0 1 59 0 42 42 0 0 1 0 60z m-157 96a97 97 0 0 0-164 70 95 95 0 0 0 28 68 97 97 0 0 0 136 0 96 96 0 0 0 0-136z m86-250a42 42 0 0 1-51-30 292 292 0 0 0-283-220h-233l27 26a42 42 0 0 1 0 59 292 292 0 0 0-83 208 292 292 0 0 0 180 268 42 42 0 1 1-31 78 375 375 0 0 1-153-583l-70-68a42 42 0 0 1-8-46 42 42 0 0 1 38-26h333a375 375 0 0 1 364 282 42 42 0 0 1-30 52z" horiz-adv-x="1000" />

<glyph glyph-name="chat-bubble-user" unicode="&#xe827;" d="M608 379a135 135 0 0 1 29 84 137 137 0 0 1-274 0 135 135 0 0 1 30-84 208 208 0 0 1-84-96 42 42 0 1 1 77-33 125 125 0 0 0 114 76h0a125 125 0 0 0 115-76 42 42 0 0 1 38-25 45 45 0 0 1 16 3 42 42 0 0 1 22 55 208 208 0 0 1-83 96z m-108 31h0a54 54 0 1 0 54 53 54 54 0 0 0-54-53z m250 357h-500a125 125 0 0 1-125-125v-459a125 125 0 0 1 125-125h108l112-113a42 42 0 0 1 30-12 42 42 0 0 1 27 10l134 115h89a125 125 0 0 1 125 125v459a125 125 0 0 1-125 125z m42-584a42 42 0 0 0-42-41h-104a42 42 0 0 1-27-10l-117-100-97 98a42 42 0 0 1-30 12h-125a42 42 0 0 0-42 41v459a42 42 0 0 0 42 41h500a42 42 0 0 0 42-41z" horiz-adv-x="1000" />

<glyph glyph-name="comments-alt" unicode="&#xe828;" d="M792 517h-42v125a125 125 0 0 1-125 125h-417a125 125 0 0 1-125-125v-500a42 42 0 0 1 26-39 35 35 0 0 1 16-3 42 42 0 0 1 30 12l117 118h61v-60a125 125 0 0 1 125-125h289l98-100a42 42 0 0 1 30-12 35 35 0 0 1 16 4 42 42 0 0 1 26 38v417a125 125 0 0 1-125 125z m-459-125v-79h-78a42 42 0 0 1-30-12l-58-59v400a42 42 0 0 0 41 41h417a42 42 0 0 0 42-41v-125h-209a125 125 0 0 1-125-125z m500-317l-41 42a42 42 0 0 1-30 13h-304a42 42 0 0 0-41 41v221a42 42 0 0 0 41 41h334a42 42 0 0 0 41-41z" horiz-adv-x="1000" />

<glyph glyph-name="comment-image" unicode="&#xe829;" d="M500 767a417 417 0 0 1-398-538 12 12 0 0 1 0-4 410 410 0 0 1 74-139l-83-83a42 42 0 0 1-9-46 42 42 0 0 1 41-24h375a417 417 0 0 1 394 283l0 3a412 412 0 0 1 23 131 417 417 0 0 1-417 417z m0-750h-275l13 12 350 351a42 42 0 0 0 59 0l151-150 9-10a333 333 0 0 0-307-203z m-311 213l66 66a42 42 0 0 0 59 0l36-36-113-114a320 320 0 0 0-48 84z m642 84l-125 125a125 125 0 0 1-176 0l-121-121-37 37a125 125 0 0 1-176 0l-29-28a219 219 0 0 0 0 23 333 333 0 0 0 666 0 345 345 0 0 0 0-36z" horiz-adv-x="1000" />

<glyph glyph-name="comment-alt" unicode="&#xe82a;" d="M792 767h-584a125 125 0 0 1-125-125v-417a125 125 0 0 1 125-125h483l154-155a42 42 0 0 1 30-12 35 35 0 0 1 16 4 42 42 0 0 1 26 38v667a125 125 0 0 1-125 125z m41-692l-95 96a42 42 0 0 1-30 12h-500a42 42 0 0 0-41 42v417a42 42 0 0 0 41 41h584a42 42 0 0 0 41-41z" horiz-adv-x="1000" />

<glyph glyph-name="comment-verify" unicode="&#xe82b;" d="M637 481l-197-197-77 77a42 42 0 0 1-59-59l106-107a42 42 0 0 1 60 0l226 227a42 42 0 1 1-59 59z m-137 286a417 417 0 0 1-417-417 412 412 0 0 1 95-264l-84-83a42 42 0 0 1-9-46 42 42 0 0 1 40-24h375a417 417 0 0 1 0 834z m0-750h-275l39 38a42 42 0 0 1 0 59 333 333 0 1 0 236-97z" horiz-adv-x="1000" />

<glyph glyph-name="comment-plus" unicode="&#xe82c;" d="M500 767a417 417 0 0 1-417-417 412 412 0 0 1 95-264l-84-83a42 42 0 0 1-9-46 42 42 0 0 1 40-24h375a417 417 0 0 1 0 834z m0-750h-275l39 38a42 42 0 0 1 0 59 333 333 0 1 0 236-97z m125 375h-83v83a42 42 0 0 1-84 0v-83h-83a42 42 0 0 1 0-84h83v-83a42 42 0 0 1 84 0v83h83a42 42 0 0 1 0 84z" horiz-adv-x="1000" />

<glyph glyph-name="comment-question" unicode="&#xe82d;" d="M615 605a42 42 0 0 1 57 16 42 42 0 0 0 78-21 42 42 0 0 0-42-42 42 42 0 0 1 0-83 125 125 0 1 1-108 188 42 42 0 0 1 15-58z m180-297a42 42 0 0 1-47-35 292 292 0 0 0-290-256h-233l28 27a42 42 0 0 1 0 59 292 292 0 0 0 205 497 42 42 0 0 1 0 83 375 375 0 0 1-291-608l-72-70a42 42 0 0 1-8-46 42 42 0 0 1 38-26h333a375 375 0 0 1 372 328 42 42 0 0 1-35 47z m-71 122a42 42 0 0 1-24 3l-7-2-8-4-6-5a42 42 0 0 1-9-14 35 35 0 0 1-3-16 42 42 0 0 1 3-17 42 42 0 0 1 9-13 42 42 0 0 1 29-12 42 42 0 0 1 42 42 35 35 0 0 1-3 16 45 45 0 0 1-23 22z" horiz-adv-x="1000" />

<glyph glyph-name="comment-notes" unicode="&#xe82e;" d="M458 392h250a42 42 0 0 1 0 83h-250a42 42 0 0 1 0-83z m-166 83a42 42 0 1 1 41-42 42 42 0 0 1-41 42z m0-167a42 42 0 1 1 41-41 42 42 0 0 1-41 41z m208 459a417 417 0 0 1-417-417 412 412 0 0 1 95-264l-84-83a42 42 0 0 1-9-46 42 42 0 0 1 40-24h375a417 417 0 0 1 0 834z m0-750h-275l39 38a42 42 0 0 1 13 30 42 42 0 0 1-13 29 333 333 0 1 0 236-97z m208 291h-250a42 42 0 0 1 0-83h250a42 42 0 0 1 0 83z" horiz-adv-x="1000" />

<glyph glyph-name="comment-alt-exclamation" unicode="&#xe82f;" d="M792 767h-584a125 125 0 0 1-125-125v-417a125 125 0 0 1 125-125h483l154-155a42 42 0 0 1 30-12 35 35 0 0 1 16 4 42 42 0 0 1 26 38v667a125 125 0 0 1-125 125z m41-692l-95 96a42 42 0 0 1-30 12h-500a42 42 0 0 0-41 42v417a42 42 0 0 0 41 41h584a42 42 0 0 0 41-41z m-333 275a42 42 0 1 1 42-42 42 42 0 0 1-42 42z m0 250a42 42 0 0 1-42-42v-125a42 42 0 0 1 84 0v125a42 42 0 0 1-42 42z" horiz-adv-x="1000" />

<glyph glyph-name="comment-exclamation" unicode="&#xe830;" d="M500 267a42 42 0 1 1 42-42 42 42 0 0 1-42 42z m0 500a417 417 0 0 1-417-417 412 412 0 0 1 95-264l-84-83a42 42 0 0 1-9-46 42 42 0 0 1 40-24h375a417 417 0 0 1 0 834z m0-750h-275l39 38a42 42 0 0 1 13 30 42 42 0 0 1-13 29 333 333 0 1 0 236-97z m0 500a42 42 0 0 1-42-42v-125a42 42 0 0 1 84 0v125a42 42 0 0 1-42 42z" horiz-adv-x="1000" />

<glyph glyph-name="no-entry" unicode="&#xe831;" d="M875 17h-52l-183 658a125 125 0 0 1-120 92h-42a125 125 0 0 1-118-92l-183-658h-52a42 42 0 0 1 0-84h750a42 42 0 0 1 0 84z m-435 636a42 42 0 0 0 42 30h41a42 42 0 0 0 42-30l33-136h-196z m-61-220h242l46-166h-334z m-116-416l47 166h380l47-166z" horiz-adv-x="1000" />

<glyph glyph-name="screw" unicode="&#xe832;" d="M905 428l-327 327a42 42 0 0 1-70-24l-31-214-83-84-14 8a42 42 0 0 1-47-68l-48-48-13 8a42 42 0 0 1-47-68l-48-49-14 9a42 42 0 0 1-57-15 42 42 0 0 1 11-53l-22-21a39 39 0 0 1-8-14 42 42 0 0 1-4-16v-131a42 42 0 0 1 42-42h130a42 42 0 0 1 16 4 39 39 0 0 1 14 8l71 72 14-8a42 42 0 0 1 57 15 42 42 0 0 1-10 53l48 48 14-8a42 42 0 0 1 21-5 42 42 0 0 1 25 71l48 49 14-8a42 42 0 0 1 20-6 42 42 0 0 1 26 74l33 33 215 30a42 42 0 0 1 34 29 42 42 0 0 1-10 44z m-667-411h-71v71l23 24 91-54z m104 104l-92 52 48 47 90-52z m109 108l-91 53 48 47 92-52z m109 109l-91 54 47 47 72-71z m102 72l-102 102 18 125 209-209z" horiz-adv-x="1000" />

<glyph glyph-name="tape" unicode="&#xe833;" d="M604 558a167 167 0 1 1 167-166 167 167 0 0 1-167 166z m0-250a83 83 0 1 0 84 84 83 83 0 0 0-84-84z m42 417h-84a292 292 0 0 1-291-292v-125h-42a42 42 0 0 1 0-83h42v-83h-167a42 42 0 0 1-42-42v-83a42 42 0 0 1 84 0v41h500a292 292 0 0 1 291 292v83a292 292 0 0 1-291 292z m208-375a208 208 0 0 0-208-208h-292v291a208 208 0 0 0 209 209h83a208 208 0 0 0 208-209z" horiz-adv-x="1000" />

<glyph glyph-name="paint-tool" unicode="&#xe834;" d="M750 808h-333a125 125 0 0 1-125-125h-42a125 125 0 0 1-125-125v-125a125 125 0 0 1 125-125h250a42 42 0 0 0 42-41v-42a83 83 0 0 1-84-83v-167a83 83 0 0 1 84-83h83a83 83 0 0 1 83 83v167a83 83 0 0 1-83 83v42a125 125 0 0 1-125 125h-250a42 42 0 0 0-42 41v125a42 42 0 0 0 42 42h42a125 125 0 0 1 125-125h333a125 125 0 0 1 125 125v83a125 125 0 0 1-125 125z m-125-666v-167h-83v167z m167 458a42 42 0 0 0-42-42h-333a42 42 0 0 0-42 42v83a42 42 0 0 0 42 42h333a42 42 0 0 0 42-42z" horiz-adv-x="1000" />

<glyph glyph-name="comment-alt-verify" unicode="&#xe835;" d="M655 588l-221-221-89 88a42 42 0 1 1-58-58l118-118a42 42 0 0 1 29-12 42 42 0 0 1 29 12l250 250a42 42 0 0 1 0 59 42 42 0 0 1-58 0z m137 179h-584a125 125 0 0 1-125-125v-417a125 125 0 0 1 125-125h483l154-155a42 42 0 0 1 30-12 35 35 0 0 1 16 4 42 42 0 0 1 26 38v667a125 125 0 0 1-125 125z m41-692l-95 96a42 42 0 0 1-30 12h-500a42 42 0 0 0-41 42v417a42 42 0 0 0 41 41h584a42 42 0 0 0 41-41z" horiz-adv-x="1000" />

<glyph glyph-name="comment-alt-redo" unicode="&#xe836;" d="M429 402a42 42 0 1 1-54 63 125 125 0 1 0-83 218 125 125 0 0 0 93-41h-52a42 42 0 0 1 0-84h125a42 42 0 0 1 42 42v125a42 42 0 0 1-83 0h0a208 208 0 1 1 12-323z m363 198h-167a42 42 0 0 1 0-83h167a42 42 0 0 0 41-42v-405l-65 60a42 42 0 0 1-28 12h-365a42 42 0 0 0-42 41v42a42 42 0 0 1-83 0v-42a125 125 0 0 1 125-125h348l125-113a42 42 0 0 1 27-12 46 46 0 0 1 17 4 42 42 0 0 1 25 38v500a125 125 0 0 1-125 125z" horiz-adv-x="1000" />

<glyph glyph-name="trowel" unicode="&#xe837;" d="M880 730a128 128 0 0 1-177 0l-100-100a125 125 0 0 1-24-142l-90-90-83 83a125 125 0 0 1-208-48l-111-334a125 125 0 0 1 30-128 125 125 0 0 1 91-38 120 120 0 0 1 42 7l333 111a125 125 0 0 1 49 208l-83 84 89 89a125 125 0 0 1 142 24l101 101a125 125 0 0 1-1 173z m-309-531a42 42 0 0 0-17-69l-332-113a42 42 0 0 0-42 10 42 42 0 0 0-10 42l111 333a42 42 0 0 0 29 31 45 45 0 0 0 10 0 42 42 0 0 0 29-12l83-83-36-36a42 42 0 0 1 0-59 42 42 0 0 1 59 0l36 36z m250 413l-101-100a42 42 0 0 0-70 29 42 42 0 0 0 12 29l100 101a42 42 0 0 0 59 0 42 42 0 0 0 0-59z" horiz-adv-x="1000" />

<glyph glyph-name="drill" unicode="&#xe838;" d="M792 683h-417a42 42 0 0 1-42-41v-84h-208a42 42 0 0 1 0-83h208v-167a42 42 0 0 1 84 0v42h166v-292a42 42 0 0 1 42-41h83a125 125 0 0 1 125 125v216a125 125 0 0 1 84 117v83a125 125 0 0 1-125 125z m-42-541a42 42 0 0 0-42-42h-41v250h83z m83 333a42 42 0 0 0-41-42h-375v167h250v-42a42 42 0 0 1 83 0v42h42a42 42 0 0 0 41-42z" horiz-adv-x="1000" />

<glyph glyph-name="comment-info" unicode="&#xe839;" d="M500 392a42 42 0 0 1-42-42v-125a42 42 0 0 1 84 0v125a42 42 0 0 1-42 42z m0 125a42 42 0 1 1 42-42 42 42 0 0 1-42 42z m0 250a417 417 0 0 1-417-417 412 412 0 0 1 95-264l-84-83a42 42 0 0 1-9-46 42 42 0 0 1 40-24h375a417 417 0 0 1 0 834z m0-750h-275l39 38a42 42 0 0 1 13 30 42 42 0 0 1-13 29 333 333 0 1 0 236-97z" horiz-adv-x="1000" />

<glyph glyph-name="jackhammer" unicode="&#xe83a;" d="M785 196a42 42 0 0 1-58 0l-86-86a42 42 0 0 1 19-69l10-3-33-33a42 42 0 0 1 0-60 42 42 0 0 1 59 0l84 84a42 42 0 0 1 10 41 42 42 0 0 1-29 30l-11 3 35 35a42 42 0 0 1 0 58z m-455-158l10 3a42 42 0 0 1 19 69l-86 86a42 42 0 0 1-58-58l34-35-11-3a42 42 0 0 1-29-30 42 42 0 0 1 11-41l83-84a42 42 0 0 1 59 0 42 42 0 0 1 0 60z m545 645a42 42 0 0 1-42-41h-125a125 125 0 0 1-125 125h-166a125 125 0 0 1-125-125h-125a42 42 0 0 1-84 0v-84a42 42 0 0 1 84 0h125v-83a125 125 0 0 1 83-118v-49a83 83 0 0 1 83-83v-250a42 42 0 0 1 84 0v250a83 83 0 0 1 83 83v49a125 125 0 0 1 83 118v83h125a42 42 0 0 1 84 0v84a42 42 0 0 1-42 41z m-250-208a42 42 0 0 0-42-42 42 42 0 0 1-41-41v-84h-84v84a42 42 0 0 1-41 41 42 42 0 0 0-42 42v167a42 42 0 0 0 42 41h166a42 42 0 0 0 42-41z m-125 125a42 42 0 0 1-42-42v-41a42 42 0 0 1 84 0v41a42 42 0 0 1-42 42z" horiz-adv-x="1000" />

<glyph glyph-name="comment-alt-info" unicode="&#xe83b;" d="M208 392a42 42 0 0 1 42 41v167a42 42 0 0 1-83 0v-167a42 42 0 0 1 41-41z m-29 303a42 42 0 0 1 45-8 48 48 0 0 1 14 8 48 48 0 0 1 9 14 35 35 0 0 1 3 16 42 42 0 0 1-12 30 42 42 0 0 1-45 8 42 42 0 0 1-14-8 42 42 0 0 1-12-30 42 42 0 0 1 3-16 48 48 0 0 1 9-14z m529-95h-333a42 42 0 0 1 0-83h333a42 42 0 0 0 42-42v-405l-65 60a42 42 0 0 1-29 12h-364a42 42 0 0 0-42 41v84a42 42 0 0 1-83 0v-84a125 125 0 0 1 125-125h348l125-113a42 42 0 0 1 27-12 46 46 0 0 1 16 4 42 42 0 0 1 25 38v500a125 125 0 0 1-125 125z" horiz-adv-x="1000" />
</font>
</defs>
</svg>
